<?xml version="1.0" standalone="no"?>
<!DOCTYPE svg PUBLIC "-//W3C//DTD SVG 1.1//EN" "http://www.w3.org/Graphics/SVG/1.1/DTD/svg11.dtd" >
<svg xmlns="http://www.w3.org/2000/svg">
<metadata>Generated by IcoMoon</metadata>
<defs>
<font id="icomoon" horiz-adv-x="1024">
<font-face units-per-em="1024" ascent="960" descent="-64" />
<missing-glyph horiz-adv-x="1024" />
<glyph unicode="&#x20;" horiz-adv-x="512" d="" />
<glyph unicode="&#xe900;" glyph-name="calendrier" d="M107.075 73.165c0-13.85 11.213-25.088 25.062-25.088h785.976c13.844 0 25.032 11.238 25.032 25.088v713.626c0 13.834-11.187 25.052-25.032 25.052h-216.028v52.065c0 13.85-11.218 25.088-25.068 25.088s-25.083-11.238-25.083-25.088v-52.065h-239.165v47.258c0 13.844-11.213 25.088-25.062 25.088-13.855 0-25.093-11.244-25.093-25.088v-47.258h-230.477c-13.85 0-25.062-11.218-25.062-25.052v-713.626zM157.199 761.702h205.409v-47.273c0-13.855 11.238-25.052 25.093-25.052 13.85 0 25.062 11.197 25.062 25.052v47.273h239.165v-42.429c0-13.85 11.238-25.073 25.083-25.073s25.068 11.228 25.068 25.073v42.429h190.935v-663.501h-735.816v663.501zM367.283 463.708c11.208 0 20.419 9.206 20.419 20.434v65.234c0 11.228-9.211 20.408-20.419 20.408h-74.89c-11.244 0-20.419-9.18-20.419-20.408v-65.234c0-11.228 9.175-20.434 20.419-20.434h74.89zM564.961 463.708c11.238 0 20.444 9.206 20.444 20.434v65.234c0 11.228-9.206 20.408-20.444 20.408h-74.895c-11.213 0-20.388-9.18-20.388-20.408v-65.234c0-11.228 9.175-20.434 20.388-20.434h74.895zM777.129 463.708c11.238 0 20.419 9.206 20.419 20.434v65.234c0 11.228-9.18 20.408-20.419 20.408h-74.89c-11.238 0-20.383-9.18-20.383-20.408v-65.234c0-11.228 9.144-20.434 20.383-20.434h74.89zM376.919 367.288h-74.885c-11.238 0-20.393-9.236-20.393-20.475v-65.219c0-11.244 9.155-20.393 20.393-20.393h74.88c11.218 0 20.419 9.149 20.419 20.393v65.219c0.005 11.244-9.196 20.475-20.413 20.475zM574.623 367.288h-74.89c-11.238 0-20.419-9.236-20.419-20.475v-65.219c0-11.244 9.18-20.393 20.419-20.393h74.89c11.213 0 20.419 9.149 20.419 20.393v65.219c0.005 11.244-9.201 20.475-20.419 20.475zM786.77 367.288h-74.89c-11.213 0-20.383-9.236-20.383-20.475v-65.219c0-11.244 9.17-20.393 20.383-20.393h74.89c11.218 0 20.444 9.149 20.444 20.393v65.219c0 11.244-9.226 20.475-20.444 20.475z" />
<glyph unicode="&#xe901;" glyph-name="annonces" d="M295.875 813.082c-13.123 0-23.777-10.639-23.777-23.752 0-13.138 10.655-23.767 23.777-23.767s23.752 10.629 23.752 23.767c0 13.112-10.624 23.752-23.752 23.752zM371.21 813.082c-13.123 0-23.777-10.639-23.777-23.752 0-13.138 10.655-23.767 23.777-23.767s23.752 10.629 23.752 23.767c0.005 13.112-10.629 23.752-23.752 23.752zM444.534 813.082c-13.153 0-23.782-10.639-23.782-23.752 0-13.138 10.624-23.767 23.782-23.767 13.092 0 23.777 10.629 23.777 23.767 0 13.112-10.685 23.752-23.777 23.752zM794.071 147.922h33.92v101.796h137.815v637.327h-771.727v-101.78h-137.784v-637.348h737.777zM236.831 844.979h687.585v-106.573h-687.585v106.573zM236.831 697.708h687.585v-407.265h-687.585v407.265zM99.046 743.839h95.037v-107.233h-95.037v107.233zM99.046 595.886h95.037v-346.168h592.527v-60.401h-687.565v406.569z" />
<glyph unicode="&#xe902;" glyph-name="deconnexion" d="M829.706 934.211l-571.709-0.804c-27.756-0.041-50.35-22.641-50.289-50.401l0.323-231.035 60.411 0.061-0.292 220.948 551.624 0.778 1.172-839.639-551.608-0.773-0.333 230.2-60.411-0.143 0.323-240.189c0.061-27.812 22.717-50.345 50.442-50.304l571.715 0.824c27.781 0.077 50.314 22.646 50.278 50.381l-1.219 859.812c-0.056 27.786-22.651 50.324-50.427 50.284zM371.697 636.472c-11.11-12.104-10.322-31.089 1.787-42.22l117.919-108.375-338.775-14.28c-16.415-0.701-29.251-14.674-28.554-31.145 0.676-16.399 14.653-29.256 31.084-28.549l338.755 14.3-108.375-117.96c-11.11-12.083-10.317-31.048 1.787-42.23 12.124-11.146 31.104-10.322 42.24 1.766l156.979 170.849c0.072 0.102 0.179 0.102 0.256 0.169 5.535 6.083 8.1 13.885 7.782 21.53-0.292 7.644-3.507 15.191-9.58 20.803-0.077 0.056-0.189 0.056-0.266 0.128l-170.798 156.979c-12.109 11.167-31.094 10.373-42.24-1.766z" />
<glyph unicode="&#xe903;" glyph-name="editer" d="M910.935 382.177l-28.59 33.761c-9.344 10.993-22.41 17.669-36.849 18.857-14.351 1.183-28.431-3.256-39.424-12.57l-72.648-61.578v336.978c0-12.57-10.204-22.733-22.764-22.733h-22.738v-366.73c4.209-0.21 8.366 25.001 12.477 24.484l-204.268-173.138h-376.678v712.443h356.234v-172.744c0-12.57 10.184-22.733 22.748-22.733h212.219c12.293 0 22.272 9.759 22.687 21.96 0.010-0.261 0.082-0.507 0.082-0.768v18.918c0 6.584-2.862 12.831-7.828 17.142l-204.646 178.109c-4.147 3.62-9.431 5.591-14.925 5.591h-409.293c-12.549 0-22.733-10.163-22.733-22.733v-757.955c0-12.57 10.184-22.707 22.733-22.707h348.283c-0.307-0.599-0.707-1.142-0.947-1.782l-42.266-109.967c-2.55-6.707-1.265-14.28 3.369-19.738 3.789-4.475 9.298-6.968 15.043-6.968 1.29 0 2.611 0.133 3.891 0.389l115.369 23.624c3.236 0.727 6.231 2.176 8.765 4.28l356.408 302.054c22.769 19.282 25.574 53.484 6.287 76.252zM521.175 851.354l148.705-129.408h-148.705v129.408zM879.186 335.933l-352.548-298.772-75.197-15.396 27.525 71.665 24.305 20.593 8.381 5.12c-0.927 3.062 3.369 1.050 2.58 4.168l317.312 268.897c2.954 2.534 6.84 3.717 10.726 3.389 3.948-0.328 7.542-2.14 10.071-5.1l28.595-33.761c5.222-6.195 4.47-15.534-1.751-20.803zM206.413 537.057h387.128v-39.516h-387.128v39.516zM206.413 453.386h387.128v-39.557h-387.128v39.557zM206.413 369.608h239.299v-39.537h-239.299v39.537z" />
<glyph unicode="&#xe904;" glyph-name="gestion_planning" d="M935.183 914.314h-911.288v-786.478h952.325v786.478h-41.037zM328.776 680.637h596.342v-219.822l-596.342 3.784v216.038zM925.123 862.367v-131.482h-848.44v131.482h848.44zM76.682 680.637h200.986v-502.554h-200.986v502.554zM328.776 178.079v235.423l596.342-3.789v-231.634h-596.342zM149.519 763.54c16.195 0 29.338 13.123 29.338 29.322 0 16.21-13.148 29.317-29.338 29.317-16.169 0-29.322-13.112-29.322-29.317 0.005-16.195 13.153-29.322 29.322-29.322zM242.514 763.54c16.174 0 29.322 13.123 29.322 29.322 0 16.21-13.143 29.317-29.322 29.317-16.189 0-29.338-13.112-29.338-29.317-0.005-16.195 13.148-29.322 29.338-29.322zM332.974 763.54c16.169 0 29.322 13.123 29.322 29.322 0 16.21-13.148 29.317-29.322 29.317-16.195 0-29.338-13.112-29.338-29.317-0.005-16.195 13.143-29.322 29.338-29.322z" />
<glyph unicode="&#xe905;" glyph-name="home" d="M873.779 438.528h-50.739v-350.193h-154.629v215.281c0 14.060-11.377 25.405-25.37 25.405h-246.497c-14.008 0-25.334-11.346-25.334-25.405v-215.281h-166.313v350.193h-50.836v-350.193h-33.316v-50.744h798.136v50.744h-45.097v350.193zM421.914 278.282h195.753v-185.027h-195.753v185.027zM390.671 354.473h246.523c13.967 0 25.339 11.382 25.339 25.405v164.306c0 13.993-11.377 25.354-25.339 25.354h-246.523c-14.008 0-25.334-11.361-25.334-25.354v-164.306c-0.005-14.024 11.32-25.405 25.334-25.405zM416.041 518.804h195.753v-113.587h-195.753v113.587zM530.043 868.931l-13.189-16.010-13.189 16.010-469.494-387.354 32.282-39.122 450.401 371.584 450.427-371.584 32.266 39.122z" />
<glyph unicode="&#xe906;" glyph-name="modif" d="M666 808h-495c-54.672 0-99-44.328-99-99v-594c0-54.672 44.328-99 99-99h272.248v49.504h-272.248c-27.264 0-49.504 22.184-49.504 49.504v594c0 27.312 22.232 49.504 49.504 49.504h495c27.312 0 49.504-22.184 49.504-49.504v-291.008l49.504 49.504v241.496c-0.008 54.672-44.336 99-99.008 99zM849.504 362.496l-35 35c-9.672 9.664-22.336 14.504-35 14.504s-25.328-4.832-35-14.504l-212.504-212.496c-9.664-9.68-39.24-47.064-39.248-59.728l-24.752-109.272 109.248 24.752c0 0 50.080 29.584 59.752 39.248l212.504 212.504c19.328 19.336 19.328 50.68 0 69.992zM619.544 97.544c-2.808-2.656-12.504-9.2-24.344-16.752l-64.12 64.128c6.568 9.016 13.896 18.080 18.416 22.576l160.008 159.992 69.992-70-159.952-159.944zM616.504 610h-396v49.504h396v-49.504zM616.504 511h-396v49.504h396v-49.504zM616.504 412h-396v49.504h396v-49.504zM418.504 313h-198v49.504h198v-49.504z" />
<glyph unicode="&#xe907;" glyph-name="nbr_chantier" d="M925.23-1.418h-704.236c-13.716 0-24.817 11.059-24.817 24.781v857.718c0 13.65 11.095 24.781 24.817 24.781h704.236c13.722 0 24.817-11.131 24.817-24.781v-857.718c0-13.722-11.095-24.781-24.817-24.781zM245.775 48.21h654.607v808.018h-654.607v-808.018zM476.472 545.27v-10.342h-115.814v132.332h78.612l43.382 49.669h-146.811c-13.722 0-24.852-11.095-24.852-24.817v-182.001c0-13.722 11.131-24.852 24.852-24.852h165.443c13.681 0 24.817 11.131 24.817 24.852v78.577l-49.628-43.418zM441.283 557.655c-4.741 0-9.554 1.367-13.722 4.163l-37.238 24.852c-11.453 7.613-14.474 22.984-6.932 34.406 7.613 11.387 23.055 14.474 34.442 6.861l21.294-14.188 97.393 86.548c10.194 9.119 25.923 8.187 34.975-2.048 9.124-10.235 8.192-25.928-2.043-35.016l-111.688-99.256c-4.634-4.239-10.522-6.323-16.481-6.323zM830.1 607.288h-206.822c-13.681 0-24.817 11.131-24.817 24.852s11.136 24.817 24.817 24.817h206.822c13.716 0 24.817-11.095 24.817-24.817s-11.1-24.852-24.817-24.852zM726.712 524.585h-103.429c-13.716 0-24.817 11.095-24.817 24.817 0 13.716 11.1 24.852 24.817 24.852h103.429c13.716 0 24.817-11.131 24.817-24.852-0.005-13.722-11.105-24.817-24.817-24.817zM478.986 245.366v-10.307h-115.779v132.337h78.577l43.453 49.628h-146.842c-13.722 0-24.817-11.059-24.817-24.781v-182.001c0-13.722 11.095-24.852 24.817-24.852h165.443c13.716 0 24.817 11.131 24.817 24.852v78.577l-49.669-43.453zM443.863 257.792c-4.813 0-9.554 1.367-13.788 4.163l-37.207 24.817c-11.418 7.613-14.474 23.020-6.897 34.442 7.613 11.387 23.020 14.474 34.401 6.861l21.299-14.188 97.357 86.548c10.276 9.083 25.928 8.187 35.052-2.048 9.124-10.271 8.192-25.923-2.079-35.052l-111.688-99.297c-4.598-4.163-10.557-6.246-16.451-6.246zM832.65 307.42h-206.822c-13.681 0-24.817 11.136-24.817 24.852s11.136 24.776 24.817 24.776h206.822c13.716 0 24.852-11.059 24.852-24.776-0.005-13.716-11.136-24.852-24.852-24.852zM729.262 224.717h-103.393c-13.716 0-24.852 11.1-24.852 24.817 0 13.722 11.136 24.817 24.852 24.817h103.393c13.716 0 24.817-11.095 24.817-24.817-0.005-13.716-11.105-24.817-24.817-24.817z" />
<glyph unicode="&#xe908;" glyph-name="pdf" d="M843.034 74.189v523.95l0.568 0.599-0.568 0.538v7.48h-8.284l-321.28 290.606-0.512-0.512 0.026 8.556h-258.012c-51.2 0-92.831-41.687-92.831-92.887v-738.33c0-51.231 41.626-92.887 92.831-92.887h495.206c51.205 0.005 92.856 41.656 92.856 92.887zM512.691 814.592l229.801-207.831h-230.523l0.722 207.831zM224.026 74.189v738.34c0 17.060 13.885 30.971 30.945 30.971h195.886l-0.983-298.655h331.249v-470.656c0-17.116-13.896-31.002-30.945-31.002h-495.206c-17.055 0.005-30.945 13.885-30.945 31.002zM341.038 431.693h-78.853v-247.439h31.094v96.901h49.971c22.748 0.42 40.402 7.122 52.915 19.932 12.534 12.872 18.79 31.186 18.79 55.004 0 22.876-6.584 41.196-19.722 54.958-13.138 13.793-31.212 20.644-54.195 20.644zM372.818 320.236c-7.363-8.253-17.956-12.385-31.78-12.385h-47.764v97.178h47.908c13.261 0 23.675-4.485 31.273-13.466 7.572-8.98 11.377-20.89 11.377-35.717 0-15.493-3.651-27.351-11.013-35.61zM496.62 431.724h-58.952v-247.47h55.388c30.822 0 54.318 8.919 70.538 26.813 16.184 17.833 24.294 43.090 24.294 75.837v41.472c0 32.748-7.992 58.132-23.972 76.211-15.98 18.068-38.385 27.136-67.297 27.136zM557.123 285.466c-0.21-24.602-5.417-43.213-15.468-55.721-10.112-12.508-26.061-18.796-47.939-18.796h-24.96v194.079h27.863c20.291 0 35.43-6.098 45.455-18.314 10.025-12.175 15.048-31.283 15.048-57.38v-43.868zM618.926 184.253h31.094v109.292h83.579v26.691h-83.579v84.792h97.7v26.665h-128.794z" />
<glyph unicode="&#xe909;" glyph-name="trash" d="M679.664 653.256h-277.336c-6.624 0-12 5.368-12 12v40.048c0 28.672 23.328 52 52 52h197.336c28.672 0 52-23.328 52-52v-40.048c0-6.632-5.376-12-12-12zM414.328 677.256h253.336v28.048c0 15.44-12.552 28-28 28h-197.336c-15.44 0-28-12.56-28-28v-28.048zM402.504 197.008c-6.624 0-12 5.368-12 12v261.448c0 6.632 5.376 12 12 12s12-5.368 12-12v-261.448c0-6.624-5.376-12-12-12zM541.096 197.008c-6.624 0-12 5.368-12 12v261.448c0 6.632 5.376 12 12 12 6.616 0 12-5.368 12-12v-261.448c0-6.624-5.384-12-12-12zM679.664 197.008c-6.624 0-12 5.368-12 12v261.448c0 6.632 5.376 12 12 12s12-5.368 12-12v-261.448c0-6.624-5.376-12-12-12zM782.008 555.664h-482.032c-25.992 0-47.136 23.328-47.136 52v17.592c0 28.672 21.144 52 47.136 52h482.032c25.992 0 47.136-23.328 47.136-52v-17.592c0-28.672-21.144-52-47.136-52zM299.976 653.256c-12.76 0-23.136-12.56-23.136-28v-17.592c0-15.44 10.376-28 23.136-28h482.032c12.76 0 23.136 12.56 23.136 28v17.592c0 15.44-10.376 28-23.136 28h-482.032zM732.736 107.040h-383.48c-26.688 0-48.408 23.328-48.408 52v408.624c0 6.632 5.376 12 12 12h456.296c6.624 0 12-5.368 12-12v-408.624c0-28.672-21.72-52-48.408-52zM324.848 555.664v-396.624c0-15.44 10.944-28 24.408-28h383.48c13.472 0 24.408 12.56 24.408 28v396.624h-432.296z" />
<glyph unicode="&#xe90a;" glyph-name="compte" d="M404.977 438.615c1.398-0.727 2.796-1.434 4.116-2.171 0.41 0.881 0.865 1.751 1.275 2.642-1.731-0.154-3.538-0.328-5.391-0.471zM255.427 206.51c15.698 0.645 32.338 1.285 49.603 1.848v34.345c-17.889-0.558-35.103-1.26-51.359-1.925-67.415-2.703-137.175-5.524-152.509 7.526-1.065 0.942-2.022 2.002-2.022 5.012 0 75.167 70.497 139.94 171.095 168.238 34.77 9.759-2.022 38.984-51.359 19.287-1.638-0.671-3.277-1.362-4.89-2.022-28.17 5.125-49.838 14.172-57.902 29.286-9.994 18.734 43.556 32.589 57.108 77.312 12.933 42.68-0.312 86.298-0.312 108.288 0 50.719 41.221 91.822 92.15 91.822 50.898 0 92.17-41.103 92.17-91.822 0-24.581-22.277-84.884 0.696-126.239 11.581-20.782 27.858-39.475 40.525-54.016 10.204 7.946 22.124 14.157 35.2 18.15-1.997 2.314-4.045 4.685-6.236 7.204-11.679 13.435-26.24 30.141-35.825 47.386-9.969 17.997-4.285 50.068-0.118 73.498 2.284 12.795 4.265 23.859 4.265 34.017 0 71.875-58.634 130.335-130.668 130.335-72.064 0-130.668-58.46-130.668-130.335 0-8.822 1.224-17.997 2.647-28.626 2.744-20.454 6.159-45.952-0.65-68.511-3.784-12.396-15.724-22.185-27.228-31.636-7.849-6.451-15.268-12.544-21.309-20.337-12.928-16.696-15.048-37.135-5.709-54.641 8.356-15.626 22.154-27.74 42.184-36.588-2.335-1.454-4.623-2.924-6.932-4.444-62.362-41.196-96.742-96.466-96.742-155.612 0-11.74 4.838-22.047 13.942-29.809 27.218-23.188 88.325-20.721 180.854-16.993zM737.971 477.066c-5.54 5.478-10.885 27.827-8.858 36.393 43.387 40.346 66.524 83.732 79.672 149.176 8.571 42.747-2.166 85.207-30.264 119.47-28.17 34.417-70.042 54.953-111.959 54.953-43.315 0-86.2-21.443-114.729-57.364-27.305-34.324-37.007-76.083-27.402-117.632 12.882-55.731 30.822-116.552 66.022-147.743 1.976-7.834 3.087-33.234-11.827-40.98-3.364-1.72-6.328-3.574-8.904-5.478-47.58-11.412-91.305-31.084-127.831-58.158-62.403-46.228-96.768-108.268-96.768-174.633 0-13.133 4.813-24.704 13.942-33.434 27.228-25.999 88.335-23.245 180.844-19.057 37.612 1.695 80.179 3.625 124.82 3.625 44.303 0 87.306-1.93 125.204-3.599 32.891-1.454 61.952-2.734 87.066-2.734 48.297 0 82.028 4.756 100.306 22.236 9.057 8.658 13.819 20.045 13.819 32.963 0 66.371-34.36 128.404-96.768 174.633-41.677 30.93-92.718 52.198-148.219 62.505-2.13 1.935-4.823 3.604-8.166 4.859zM952.617 235.075c0-3.036-0.86-4.122-1.92-5.13-15.918-15.206-88.678-11.981-159.053-8.873-38.308 1.7-81.746 3.651-126.915 3.651-45.512 0-88.556-1.951-126.556-3.671-67.415-3.062-137.17-6.211-152.504 8.428-1.080 1.034-2.048 2.248-2.048 5.601 0 104.074 107.264 190.326 246.001 203.945v38.651c-1.060-0.108-2.074-0.251-3.128-0.348 1.469 4.946 2.575 10.184 3.128 15.785 1.418 13.292 0.461 38.472-11.919 48.589-28.626 23.429-45.532 84.874-55.788 129.080-6.881 29.86 0.22 60.027 20.035 84.961 21.002 26.399 53.407 42.819 84.608 42.819 30.505 0 61.23-15.252 82.202-40.822 20.608-25.196 28.529-56.294 22.277-87.537-13.512-67.2-37.591-100.531-69.637-129.92-14.515-13.317-11.679-38.574-8.689-52.454 0.507-2.493 1.326-5.719 2.432-9.318-0.65 0.026-1.326 0.097-1.976 0.154v-38.548c145.178-9.196 259.451-97.638 259.451-205.041z" />
<glyph unicode="&#xe90b;" glyph-name="decision" d="M988.237 160.42h-283.397c-6.159 0-11.945 2.821-15.718 7.649-3.758 4.9-5.084 11.177-3.558 17.162l34.816 136.11c2.222 8.812 10.194 14.961 19.256 14.961h208.809c8.832 0 16.594-5.868 19.077-14.295l39.767-136.146c1.787-6.011 0.579-12.488-3.169-17.495-3.743-5.012-9.667-7.946-15.882-7.946zM730.45 200.192h231.224l-28.155 96.323h-178.437l-24.632-96.323zM655.114 160.855h-283.382c-6.154 0-11.93 2.852-15.698 7.68-3.768 4.895-5.11 11.172-3.569 17.157l34.79 136.11c2.243 8.812 10.204 14.971 19.287 14.971h208.804c8.832 0 16.568-5.873 19.103-14.336l39.741-136.11c1.756-6.021 0.604-12.488-3.128-17.505-3.814-5.002-9.672-7.967-15.949-7.967zM397.343 200.648h231.235l-28.145 96.323h-178.458l-24.632-96.323zM317.588 160.42h-283.377c-6.154 0-11.945 2.821-15.708 7.649-3.773 4.9-5.094 11.177-3.574 17.162l34.806 136.11c2.248 8.812 10.189 14.961 19.267 14.961h208.809c8.852 0 16.589-5.868 19.092-14.295l39.752-136.146c1.772-6.011 0.589-12.488-3.149-17.495-3.773-5.012-9.672-7.946-15.918-7.946zM59.807 200.192h231.235l-28.145 96.323h-178.458l-24.632-96.323zM828.861 373.079h-283.387c-6.159 0-11.935 2.883-15.698 7.716-3.779 4.833-5.11 11.172-3.569 17.096l34.806 136.156c2.248 8.771 10.189 14.93 19.282 14.93h208.804c8.837 0 16.573-5.827 19.082-14.285l39.736-136.11c1.792-5.99 0.609-12.518-3.128-17.526-3.779-5.012-9.682-7.977-15.928-7.977zM571.085 412.882h231.245l-28.145 96.358h-178.473l-24.627-96.358zM491.3 372.618h-283.351c-6.159 0-11.945 2.883-15.713 7.716-3.768 4.864-5.094 11.172-3.569 17.121l34.806 136.125c2.248 8.791 10.204 14.95 19.267 14.95h208.804c8.847 0 16.604-5.842 19.103-14.285l39.747-136.131c1.761-5.985 0.589-12.483-3.149-17.521-3.768-5.012-9.656-7.977-15.944-7.977zM233.564 412.421h231.224l-28.145 96.358h-178.447l-24.632-96.358zM655.114 575.58h-283.382c-6.154 0-11.93 2.862-15.698 7.7-3.768 4.859-5.11 11.162-3.569 17.121l34.79 136.1c2.243 8.822 10.204 14.981 19.287 14.981h208.804c8.832 0 16.568-5.842 19.103-14.3l39.741-136.115c1.756-5.996 0.604-12.513-3.128-17.526-3.814-5.007-9.672-7.962-15.949-7.962zM397.343 615.368h231.235l-28.145 96.328h-178.458l-24.632-96.328z" />
<glyph unicode="&#xe90c;" d="M453.765 15.693c-5.443 0-10.665 2.365-14.254 6.61-4.393 5.176-5.612 12.349-3.195 18.708l40.059 104.218c1.106 2.929 2.934 5.489 5.335 7.485l337.777 286.29c10.414 8.837 23.767 13.051 37.366 11.93 13.681-1.126 26.066-7.46 34.918-17.859l27.1-31.995c18.278-21.581 15.626-54.016-5.949-72.289l-337.807-286.28c-2.406-2.002-5.238-3.374-8.294-4.055l-109.353-22.39c-1.219-0.246-2.468-0.374-3.702-0.374zM509.45 127.401l-26.086-67.927 71.291 14.597 334.121 283.172c5.898 4.992 6.62 13.844 1.659 19.707l-27.1 32c-2.406 2.806-5.806 4.557-9.544 4.864-3.686 0.312-7.357-0.809-10.168-3.246l-334.172-283.167z" />
<glyph unicode="&#xe90d;" d="M251.141 547.86h366.915v-37.448h-366.915v37.448z" />
<glyph unicode="&#xe90e;" d="M251.141 468.557h366.915v-37.468h-366.915v37.468z" />
<glyph unicode="&#xe90f;" d="M729.047 678.502h-21.55v-323.318c15.032-0.748 29.409-3.62 43.136-8.172v353.039c-0.005-11.914-9.672-21.55-21.586-21.55z" />
<glyph unicode="&#xe910;" d="M537.969 190.019h-369.254v675.256h337.633c0 11.914 9.651 21.545 21.565 21.545s21.55-9.636 21.55-21.545v-19.523l142.653-124.15h36.925c11.914 0 21.586-9.672 21.586-21.519v17.93c0 6.236-2.719 12.16-7.424 16.246l-193.961 168.806c-3.932 3.43-8.934 5.304-14.147 5.304h-387.917c-11.899 0-21.55-9.636-21.55-21.55v-718.382c0-11.914 9.651-21.514 21.55-21.514h398.106c-4.152 13.722-6.968 28.063-7.316 43.095z" />
<glyph unicode="&#xe911;" d="M527.913 679.997h201.129c11.914 0 21.586 9.636 21.586 21.55s-9.672 21.545-21.586 21.545h-179.579v143.677c0 11.878-9.636 21.55-21.55 21.55s-21.565-9.672-21.565-21.55v-165.222c0-11.914 9.656-21.55 21.565-21.55z" />
<glyph unicode="&#xe912;" d="M251.141 389.176h226.796v-37.489h-226.796v37.489z" />
<glyph unicode="&#xe913;" glyph-name="email" d="M41.283 213.089c0-16.65 13.496-30.152 30.152-30.152h895.201c16.65 0 30.147 13.501 30.147 30.152v596.884c0 0.778-0.246 1.526-0.312 2.309 0.276 3.763 0.102 7.598-1.075 11.325-3.953 12.544-15.611 21.079-28.759 21.079h-895.206c-16.65 0-30.152-13.512-30.152-30.167v-2.447c0-0.399 0.108-0.748 0.108-1.106 0-0.348-0.108-0.681-0.108-0.993v-596.884zM871.363 784.353l-66.995-47.145-285.389-191.98-355.195 239.124h707.579zM101.617 753.3l34.002-22.917 366.085-255.744c5.202-3.625 11.238-5.448 17.275-5.448 6.103 0 12.18 1.859 17.388 5.514l302.351 212.828 97.7 65.761v-510.049h-834.801v510.054z" />
<glyph unicode="&#xe914;" glyph-name="faq" d="M492.913-6.129h-135.388c-14.198 0-25.713 11.489-25.713 25.692v168.289c0 14.198 11.515 25.738 25.713 25.738h135.388c14.198 0 25.708-11.54 25.708-25.738v-168.289c0-14.203-11.51-25.692-25.708-25.692zM383.232 45.24h83.937v116.931h-83.937v-116.931zM489.242 278.011h-134.154c-14.198 0-25.708 11.479-25.708 25.682 0 43.018 7.209 82.422 21.437 117.11 15.124 36.915 45.88 69.007 91.397 95.411 12.191 7.311 27.694 15.892 46.121 25.559 16.435 8.525 32.855 19.036 48.768 31.181 14.74 11.244 27.372 24.535 37.524 39.583 8.945 13.348 13.292 28.339 13.292 46.044 0 12.995-2.355 24.294-7.035 33.644-4.992 9.938-11.269 18.038-19.251 24.776-7.977 6.799-17.219 11.786-28.252 15.196-25.861 8.192-53.642 7.071-74.491-1.603-12.477-5.228-24.079-11.878-34.473-19.85-10.337-7.916-19.369-16.952-26.89-26.849-8.412-11.059-15.647-21.571-21.734-31.478-3.722-5.985-9.713-10.276-16.62-11.663-6.876-1.388-14.054-0.056-19.896 3.988l-106.102 73.196c-10.015 6.886-13.819 19.912-9.124 31.058 11.602 27.735 27.3 52.726 46.633 74.332 19.108 21.299 41.211 39.578 65.684 54.262 24.248 14.566 50.929 25.774 79.191 33.295 59.387 15.775 124.733 14.93 185.892-3.261 33.234-9.851 63.473-25.836 89.974-47.345 26.772-21.816 48.763-49.915 65.382-83.604 16.748-33.961 25.231-74.476 25.231-120.509 0-28.462-3.476-54.144-10.271-76.442-6.861-22.359-16.865-43.085-29.737-61.512-12.626-18.007-27.704-34.386-44.744-48.829-16.435-13.773-35.082-27.249-55.409-39.941-16.922-10.148-33.413-19.64-49.976-28.769-14.807-8.090-28.462-17.28-40.643-27.249-11.023-9.001-20.163-19.461-27.162-31.119-6.072-10.092-9.124-23.081-9.124-38.61 0.005-14.203-11.53-25.682-25.733-25.682zM381.844 329.431h83.814c2.54 14.5 7.373 27.679 14.351 39.342 10.030 16.742 23.050 31.718 38.676 44.472 14.633 11.971 30.92 22.912 48.415 32.512 15.923 8.76 31.903 17.946 47.949 27.556 17.884 11.238 34.534 23.204 49.126 35.471 13.624 11.484 25.687 24.596 35.717 38.912 9.789 14.024 17.428 29.855 22.692 47.14 5.35 17.341 8.003 38.006 8.003 61.332 0 38.052-6.671 70.958-19.881 97.756-13.292 27.008-30.725 49.336-51.727 66.468-21.212 17.193-45.501 30.003-72.212 37.949-52.122 15.493-107.715 16.164-157.988 2.806-23.639-6.282-45.819-15.585-65.925-27.612-20.060-12.058-38.19-27.044-53.842-44.57-11.075-12.324-20.664-26.107-28.641-41.119l66.575-45.921c3.072 4.316 6.287 8.668 9.626 13.051 10.271 13.599 22.579 25.892 36.572 36.593 13.885 10.665 29.353 19.574 45.942 26.496 32.087 13.353 72.33 14.925 109.676 3.231 17.464-5.468 32.937-13.901 46.136-25.047 13.174-11.182 23.962-24.96 31.995-40.996 8.248-16.62 12.452-35.702 12.452-56.668 0-27.796-7.429-52.997-22.057-74.747-13.327-19.702-29.788-37.161-49.034-51.789-18.222-13.896-37.089-25.923-56.12-35.891-17.362-9.062-31.954-17.101-43.781-24.228-35.789-20.792-59.218-44.421-69.944-70.641-8.858-21.581-14.408-45.691-16.563-71.859z" />
<glyph unicode="&#xe915;" glyph-name="garantie" d="M508.365-45.957c-267.791 0-485.612 217.825-485.612 485.514 0 267.807 217.82 485.632 485.612 485.632 267.75 0 485.606-217.82 485.606-485.632 0-267.689-217.856-485.514-485.606-485.514zM508.365 860.298c-231.987 0-420.68-188.739-420.68-420.741 0-231.89 188.692-420.618 420.68-420.618 231.946 0 420.685 188.728 420.685 420.618-0.005 232.008-188.739 420.741-420.685 420.741zM361.8 204.467c-7.532 0-14.909 2.56-20.859 7.516-8.694 7.322-12.959 18.606-11.249 29.814 3.123 20.28 5.432 41.324 7.736 62.449 2.975 26.732 6.011 54.18 10.624 80.451-12.698 16.809-27.796 32.138-43.658 48.23-20.531 20.859-41.81 42.404-59.382 69.13-6.118 9.262-7.055 21.084-2.458 31.181 4.577 10.143 14.029 17.275 25.032 18.796 25.262 3.543 49.203 8.428 73.129 13.23 21.791 4.306 44.186 8.842 67.651 12.431 13.86 21.617 26.312 45.030 39.363 69.658 11.116 20.972 22.292 42.015 34.468 62.075 5.78 9.528 16.092 15.478 27.279 15.631 11.095 1.485 21.642-5.453 27.74-14.828 15.57-24.136 29.358-49.797 42.68-74.619 10.829-20.28 21.202-39.537 32.338-57.953 26.153-3.927 50.929-8.96 75.105-13.875 20.552-4.193 41.098-8.351 62.341-11.858 14.147-2.289 25.124-13.614 26.952-27.873 4.004-30.807-20.618-52.388-40.412-69.734-5.719-5.028-11.515-9.989-16.092-15.022-0.077-0.041-0.077-0.077-0.077-0.077-7.777-8.397-15.099-17.126-22.303-25.702-7.967-9.457-15.672-18.606-23.598-26.993 1.597-22.917 4.572-44.421 7.741-66.913 3.615-25.661 7.281-52.116 8.73-81.096 0.568-10.829-4.27-21.161-12.964-27.607-8.622-6.446-19.973-8.197-30.157-4.654-28.938 10.143-54.789 22.804-79.882 35.046-19.364 9.492-37.842 18.524-57.272 26.271-17.5-7.327-34.294-15.519-51.927-24.1-26.977-13.123-54.866-26.691-86.246-37.32-3.338-1.152-6.907-1.684-10.373-1.684zM510.039 334.863c3.753 0 7.491-0.609 11.131-1.946 26.936-9.836 51.379-21.775 74.988-33.29 8.3-4.076 16.471-8.079 24.627-11.894-1.029 7.557-2.058 15.14-3.128 22.84-3.891 27.448-7.849 55.818-9.073 87.316-0.379 9.375 3.359 18.488 10.22 24.934 9.231 8.617 18.99 20.209 29.286 32.481 7.813 9.303 15.826 18.796 24.248 27.873 4.378 4.762 9.492 9.605 14.868 14.377-4.275 0.876-8.54 1.71-12.81 2.591-28.974 5.903-56.32 11.474-85.791 15.329-9.457 1.219-17.884 6.554-23.086 14.52-15.652 24.248-29.476 50.022-42.813 74.921-4.106 7.629-8.084 15.058-12.109 22.415-1.833-3.466-3.717-6.979-5.55-10.45-15.611-29.43-31.816-59.858-51.036-87.731-5.187-7.511-13.343-12.503-22.4-13.681-26.747-3.548-51.702-8.581-78.085-13.88-7.071-1.413-14.141-2.826-21.233-4.193 5.929-6.328 12.088-12.544 18.381-18.908 20.337-20.664 41.385-42.056 58.885-68.403 4.746-7.132 6.477-15.969 4.746-24.402-5.571-27.448-9.016-58.522-12.339-88.53-0.338-3.123-0.707-6.175-1.014-9.231 9.651 4.465 19.256 9.155 29.097 13.962 21.617 10.486 43.996 21.422 68.28 30.843 3.738 1.454 7.726 2.135 11.709 2.135z" />
<glyph unicode="&#xe916;" glyph-name="helpin" d="M950.538 400.507h9.636c0 258.57-200.919 468.936-447.913 468.936s-447.892-210.365-447.892-468.936h3.978c-15.775-20.777-25.16-46.659-25.16-74.701v-177.915c0-68.291 55.516-123.827 123.786-123.827s123.807 55.537 123.807 123.827v177.915c0 68.255-55.532 123.786-123.807 123.786-15.954 0-31.191-3.067-45.21-8.581 19.384 209.024 187.11 372.931 390.497 372.931 204.012 0 372.122-164.951 390.63-374.922-15.043 6.769-31.693 10.568-49.234 10.568-66.309 0-120.259-53.914-120.259-120.264v-184.996c0-66.314 53.949-120.264 120.259-120.264 66.355 0 120.269 53.949 120.269 120.264v184.996c0 26.624-8.699 51.241-23.388 71.183zM235.279 325.806v-177.915c0-37.637-30.638-68.326-68.306-68.326-37.663 0-68.306 30.689-68.306 68.326v177.915c0 37.663 30.643 68.321 68.306 68.321 37.668 0 68.306-30.659 68.306-68.321zM918.456 144.328c0-35.702-29.071-64.763-64.799-64.763-35.692 0-64.763 29.066-64.763 64.763v184.996c0 35.732 29.076 64.799 64.763 64.799 35.732 0 64.799-29.071 64.799-64.799v-184.996z" />
<glyph unicode="&#xe917;" glyph-name="machines" d="M923.597 612.449l-159.805 146.063c-27.192 24.832-66.099 32.015-112.502 20.818-37.484-9.037-70.164-28.027-86.185-42.936-0.082-0.072-0.159-0.138-0.236-0.215-0.036-0.031-0.072-0.061-0.108-0.092-20.777-19.594-75.868-13.476-93.742 1.495-32.809 33.649-150.385 78.013-212.101 21.796-51.103-46.556-130.365-132.797-133.75-136.443-2.202-2.406-3.676-5.207-4.572-8.141-56.33-38.057-93.44-102.497-93.44-175.452 0-116.69 94.915-211.604 211.584-211.604 69.084 0 130.54 33.285 169.18 84.654h214.349c3.282 0 6.349 0.814 9.119 2.15 38.538-52.582 100.705-86.804 170.742-86.804 116.675 0 211.599 94.915 211.599 211.604 0.010 71.501-35.676 134.784-90.132 173.107zM287.421 728.074c36.357 33.091 116.337 8.417 146.529-14.172l-10.854-81.326c-1.531-11.597 6.6-22.246 18.176-23.777 0.968-0.113 1.894-0.174 2.836-0.174 10.435 0 19.523 7.731 20.936 18.35l8.33 62.413c28.892-9.892 65.9-10.854 94.541 0.174l23.854-66.888c3.057-8.668 11.223-14.065 19.927-14.065 2.35 0 4.762 0.394 7.112 1.234 10.993 3.907 16.753 16.046 12.815 27.023l-27.331 76.652c31.877 21.775 97.869 43.96 130.929 13.722l84.372-77.087c-5.765 0.471-11.576 0.778-17.454 0.778-75.372 0-141.619-39.639-179.113-99.133-0.251 0.005-0.492 0.077-0.748 0.077h-204.462c-37.499 59.453-103.726 99.057-179.067 99.057-10.639 0-21.089-0.809-31.314-2.335 25.713 26.813 56.34 57.938 79.985 79.478zM238.751 270.060c-93.353 0-169.283 75.945-169.283 169.283s75.924 169.283 169.283 169.283 169.283-75.94 169.283-169.277c0-93.343-75.93-169.288-169.283-169.288zM432.635 354.703c11.366 25.933 17.715 54.554 17.715 84.639 0 24.607-4.265 48.22-12.022 70.205h164.234c-7.762-21.985-12.027-45.604-12.027-70.205 0-30.085 6.349-58.706 17.72-84.639h-175.621zM802.14 270.060c-93.338 0-169.283 75.945-169.283 169.283s75.94 169.283 169.283 169.283c93.317 0 169.283-75.945 169.283-169.283s-75.965-169.283-169.283-169.283zM254.735 568.714c-72.796 0-132.777-55.823-139.418-126.93 12.692-6.661 26.772-11.054 41.697-12.564 0.343 53.637 44.027 97.172 97.72 97.172 9.364 0 18.412-1.413 26.993-3.876 1.295 6.886 1.987 13.988 1.987 21.243 0 7.644-0.748 15.109-2.191 22.369-8.668 1.674-17.603 2.586-26.788 2.586zM813.865 563.425c-72.796 0-132.751-55.828-139.418-126.935 12.692-6.656 26.772-11.044 41.702-12.559 0.353 53.632 44.027 97.172 97.72 97.172 9.375 0 18.427-1.408 27.008-3.876 1.295 6.892 1.997 13.988 1.997 21.248 0 7.639-0.758 15.104-2.232 22.364-8.643 1.674-17.638 2.586-26.778 2.586z" />
<glyph unicode="&#xe918;" glyph-name="notification" d="M941.22 193.669l-92.452 87.788v260.229c0 146.063-98.749 271.77-238.162 307.789v14.848c0 35.021-28.396 63.488-63.452 63.488h-33.915c-35.016 0-63.508-28.472-63.508-63.488v-15.053c-139.069-36.347-237.588-161.935-237.588-307.584v-260.234l-92.841-87.788c-5.852-5.524-9.201-13.338-9.201-21.443v-55.224c0-16.282 13.194-29.45 29.496-29.45h293.535c-0.236-1.495-0.394-3.021-0.394-4.588 0-53.745 43.689-97.398 97.398-97.398 53.796 0 97.567 43.653 97.567 97.398 0 1.567-0.154 3.092-0.389 4.588h293.53c16.364 0 29.542 13.169 29.542 29.45v55.224c0 8.11-3.277 15.836-9.165 21.448zM530.14 44.595c-9.303 0-17.812 3.277-24.458 8.847h49.044c-6.666-5.571-15.258-8.847-24.586-8.847zM891.397 146.54h-722.289v13.010l92.841 87.706c5.893 5.606 9.247 13.338 9.247 21.473v272.957c0 125.384 89.692 232.525 213.315 254.858 14.034 2.514 24.238 14.746 24.238 29.020v38.758c0 2.534 1.946 4.48 4.5 4.48h33.915c2.473 0 4.454-2.028 4.454-4.48v-38.636c0-14.275 10.23-26.547 24.387-29.020 123.786-21.985 213.699-129.188 213.699-254.976v-272.957c0-8.054 3.354-15.831 9.247-21.391l92.452-87.788v-13.015z" />
<glyph unicode="&#xe919;" glyph-name="propduits" d="M195.763-6.252h597.371c65.372 0 118.538 53.202 118.538 118.528v677.934c0 65.336-53.171 118.497-118.538 118.497h-502.502c-65.336 0-118.508-53.156-118.508-118.712l4.536-530.755h-14.024v-1.51l-81.603-3.272c-12.708-0.502-22.774-10.982-22.774-23.69v-99.523c-0.005-65.526 71.977-137.498 137.503-137.498zM105.692 207.99l95.329 3.85h379.069c3.333-69.862 63.094-123.29 114.877-123.29h31.795v51.722h-31.795c-33.244 0-75.484 36.552-75.484 77.599v41.37h-395.448l-4.536 530.97c0 39.183 31.933 71.107 71.132 71.107h502.508c39.235 0 71.112-31.918 71.112-71.107v-677.929c0-39.209-31.877-71.122-71.112-71.122h-597.376c-39.578 0-90.076 50.529-90.076 90.092v76.739zM589.276 681.17h175.401v-66.376h-175.401v66.376zM579.814 477.312h175.401v-66.371h-175.401v66.371zM394.189 586.291l14.326-14.5 119.301 117.878-36.628 37.105-83.333-82.304-58.993 59.709-36.603-36.116 81.331-82.355zM412.616 445.348l-58.998 59.709-36.577-36.111 81.275-82.335 0.604 0.568 14.326-14.51 119.301 117.888-36.603 37.094z" />
<glyph unicode="&#xe91a;" glyph-name="purchase" d="M712.197 129.618h-578.079c-16.041 0-29.015 12.995-29.015 29.036v745.743c0 16.041 12.974 29.036 29.015 29.036h578.079c16.010 0 29-12.995 29-29.036v-745.738c0-16.046-12.989-29.041-29-29.041zM163.113 187.689h520.084v687.713h-520.084v-687.713zM275.026 783.247h312.069v-58.030h-312.069v58.030zM274.637 569.866h312.069v-58.030h-312.069v58.030zM274.637 359.557h312.069v-57.989h-312.069v57.989zM472.776 465.976h113.925v-58.030h-113.925v58.030zM274.637 465.976h156.426v-58.030h-156.426v58.030zM876.16 783.247h-56.545v-58.030h27.546v-687.703h-520.064v3.599h-58.035v-32.635c0-15.964 12.989-28.954 29.015-28.954h578.084c16.036 0 28.989 12.989 28.989 28.954v745.769c0 16.005-12.954 29-28.989 29z" />
<glyph unicode="&#xe91b;" glyph-name="registrations" d="M295.511 624.389c0.829 0 1.628 0.108 2.427 0.215 4.71-24.402 11.244-50.109 20.306-75.182 42.281-116.859 112.63-141.363 164.183-141.363 110.648 0 163.441 108.856 184.622 217.211 1.736-0.563 3.471-0.881 5.238-0.881 19.692 0 35.697 32.701 35.697 73.073 0 36.654-13.174 66.893-30.316 72.187-11.192 91.412-94.479 162.662-195.241 162.662-101.238 0-184.812-71.9-195.4-163.886-15.596-7.839-27.162-36.593-27.162-70.963 0-40.371 15.959-73.073 35.645-73.073zM482.427 882.381c80.86 0 146.662-60.006 146.662-133.765 0-100.531-30.669-290.627-146.662-290.627-51.768 0-91.233 36.475-117.263 108.431-21.652 59.843-29.379 133.361-29.379 182.195 0 73.759 65.782 133.765 146.642 133.765zM867.686 287.519c-7.081 3.825-161.894 86.405-336.829 100.639v-44.513c-9.754-4.813-15.58-15.688-13.496-26.911l38.636-208.824-75.284-81.869-75.29 81.869 38.615 208.824c1.664 9.032-1.766 17.843-8.269 23.404v48.374c-176.881-13.071-334.428-97.101-341.581-100.997-17.3-9.349-28.099-27.412-28.099-47.099v-199.654c0-29.532 23.977-53.504 53.53-53.504h222.49l-16.609 53.504h-205.88v199.654c0 0 126.986 68.588 276.669 90.015-0.584-1.485-1.044-3.046-1.347-4.634l-40.893-221.082c0-0.138-0.036-0.343-0.036-0.497-0.072-0.42-0.143-0.886-0.179-1.341-0.072-0.43-0.108-0.814-0.108-1.172-0.036-0.384-0.036-0.804-0.036-1.203 0-0.42-0.036-0.886 0-1.306 0-0.353 0.036-0.712 0.072-1.065 0.036-0.456 0.072-0.886 0.143-1.341 0.036-0.353 0.108-0.712 0.179-1.065 0.072-0.42 0.138-0.85 0.246-1.316 0.092-0.343 0.195-0.748 0.302-1.091 0.108-0.43 0.21-0.783 0.353-1.142 0.159-0.42 0.297-0.845 0.476-1.275 0.108-0.282 0.246-0.635 0.394-0.988 0.195-0.389 0.404-0.773 0.62-1.203 0.159-0.317 0.333-0.64 0.512-0.922 0.21-0.42 0.44-0.773 0.691-1.132 0.21-0.353 0.425-0.635 0.655-0.988 0.215-0.323 0.461-0.604 0.727-0.922 0.246-0.353 0.532-0.748 0.865-1.065 0.108-0.138 0.179-0.282 0.317-0.42l94.797-103.127c1.26-4.178 3.594-8.074 7.030-11.264 4.782-4.383 10.839-6.584 16.896-6.584 0.584 0 1.167 0.077 1.751 0.077s1.152-0.077 1.736-0.077c6.021 0 12.073 2.202 16.855 6.584 3.487 3.19 5.811 7.086 7.045 11.264l94.828 103.127c0.072 0.138 0.215 0.282 0.323 0.42 0.287 0.323 0.563 0.712 0.891 1.065 0.21 0.317 0.42 0.594 0.666 0.922 0.251 0.353 0.466 0.635 0.676 0.988 0.215 0.353 0.497 0.712 0.712 1.132 0.138 0.282 0.323 0.604 0.497 0.922 0.179 0.43 0.43 0.814 0.568 1.203 0.138 0.353 0.282 0.712 0.456 0.988 0.143 0.43 0.323 0.855 0.43 1.275 0.138 0.353 0.246 0.712 0.384 1.142 0.077 0.343 0.215 0.748 0.287 1.091 0.072 0.466 0.138 0.896 0.287 1.316 0 0.353 0.108 0.712 0.174 1.065 0.036 0.456 0.072 0.886 0.108 1.341 0.041 0.353 0.072 0.712 0.072 1.065 0.041 0.42 0.041 0.886 0.041 1.306-0.041 0.399-0.041 0.819-0.041 1.203-0.031 0.358-0.072 0.748-0.108 1.172-0.072 0.456-0.108 0.922-0.174 1.341-0.072 0.148-0.072 0.353-0.072 0.497l-40.934 221.082c-0.287 1.659-0.748 3.226-1.352 4.71 149.934-21.356 277.212-90.092 277.212-90.092v-199.654h-210.243l-20.716-53.504h230.958c29.563 0 53.463 23.977 53.463 53.504v199.654c-0.010 19.697-10.767 37.755-28.058 47.104z" />
<glyph unicode="&#xe91c;" glyph-name="sale" d="M553.144 617.569h-285.394c-13.901 0-25.221-11.32-25.221-25.206s11.315-25.17 25.221-25.17h285.394c13.885 0 25.185 11.284 25.185 25.17s-11.3 25.206-25.185 25.206zM553.144 474.015h-285.394c-13.901 0-25.221-11.32-25.221-25.206s11.315-25.149 25.221-25.149h285.394c13.885 0 25.185 11.264 25.185 25.149s-11.3 25.206-25.185 25.206zM553.144 340.792h-285.394c-13.901 0-25.221-11.32-25.221-25.206s11.315-25.17 25.221-25.17h285.394c13.885 0 25.185 11.284 25.185 25.17s-11.3 25.206-25.185 25.206zM954.286 379.827c-9.902 9.723-25.907 9.615-35.661-0.307l-336.922-342.385-124.774 122.819c-9.887 9.754-25.871 9.61-35.599-0.256-9.738-9.933-9.631-25.907 0.251-35.625l142.72-140.508c4.736-4.705 11.013-7.255 17.649-7.255 5.13 0 10.015 1.516 14.1 4.27 1.367 0.973 2.693 2.043 3.881 3.236l354.642 360.361c9.723 9.923 9.585 25.907-0.287 35.651zM129.756 55.972v694.799c0 22.047 17.94 39.972 39.936 39.972h73.303v-20.972c0-38.354 31.237-69.586 69.591-69.586h184.192c38.354 0 69.591 31.232 69.591 69.586v20.972h73.252c22.031 0 39.972-17.92 39.972-39.972v-477.885h46.93v477.885c0 47.903-38.963 86.886-86.902 86.886h-73.252v32.527c0 38.354-31.237 69.591-69.591 69.591h-184.192c-38.354 0-69.591-31.237-69.591-69.591v-32.527h-73.303c-47.898 0-86.881-38.984-86.881-86.886v-694.804c0-47.928 38.984-86.902 86.881-86.902h222.689v46.935h-222.689c-21.996 0.005-39.936 17.946-39.936 39.972zM289.925 769.772v100.413c0 12.488 10.173 22.676 22.661 22.676h184.192c12.488 0 22.661-10.189 22.661-22.676v-100.413c0-12.498-10.173-22.676-22.661-22.676h-184.192c-12.488 0-22.661 10.173-22.661 22.676z" />
<glyph unicode="&#xe91d;" glyph-name="satisfaction" d="M981.939 598.886l-86.129 101.581c-28.908 34.099-80.169 38.298-114.161 9.539l-42.394-32.998-0.435 0.159c-29.891 9.492-131.405 39.951-183.393 32.932-7.936-1.106-17.111-3.343-27.228-6.702l-0.276-0.092-0.297 0.092c-77.025 24.177-113.746 9.431-143.191-2.386l-1.311-0.512c-14.029-5.627-26.199-10.542-42.225-10.209l-20.572 0.143c-46.991 0.333-59.643 0.42-68.588 6.932-42.988 31.36-79.795 29.804-112.481-4.669l-70.513-96.077c-34.918-37.944-10.004-91.162 2.324-112.266l35.738-62.228 2.022-2.15c6.932-6.569 15.002-11.837 23.9-15.58l1.311-0.589-30.126-29.655c-19.773-19.456-20.050-51.354-0.568-71.183l17.48-17.705c5.304-5.381 11.643-9.395 18.806-12.012l0.819-0.261-0.22-0.85c-4.127-17.096 0.717-34.714 12.984-47.16l17.444-17.766c9.426-9.564 22.011-14.858 35.533-14.976 6.758 0 12.954 1.167 18.959 3.574l0.906 0.323 0.317-0.87c2.499-6.405 6.19-12.216 11.049-17.101l17.454-17.741c9.533-9.656 22.267-15.002 35.881-15.002 7.532 0 15.145 1.741 22.042 5.11l0.886 0.42 0.389-0.881c2.504-5.934 6.006-11.228 10.44-15.698l17.464-17.736c9.523-9.661 22.231-15.007 35.84-15.007 13.317 0 25.876 5.11 35.343 14.413l11.945 11.807 24.182-20.352c7.731-7.209 16.722-12.303 26.706-15.119l0.655-0.236c9.18-4.823 19.461-7.327 29.742-7.327 17.797 0 34.98 7.439 47.109 20.383 5.437 5.847 9.764 12.733 12.764 20.495l0.497 1.285 7.557-7.101c7.619-7.091 16.522-12.119 26.522-14.94l0.64-0.236c9.19-4.772 19.451-7.327 29.768-7.327 17.802 0 34.959 7.444 47.109 20.408 7.741 8.253 13.174 18.58 15.672 29.752l0.236 1.070 1.014-0.41c7.593-2.995 15.59-4.506 23.675-4.506 17.797 0 35.011 7.444 47.135 20.388 11.72 12.549 17.884 28.954 17.306 46.172-0.092 2.499-0.353 5.115-0.876 8.228l-0.179 1.244 1.224-0.169c3.896-0.527 7.122-0.696 10.527-0.527 17.213 0.548 33.208 7.772 44.923 20.301 11.781 12.559 17.884 28.959 17.331 46.228-0.548 17.183-7.818 33.152-20.326 44.902l-14.771 13.844 1.51 0.466c10.296 3.308 19.656 8.453 28.037 15.58l119.101 119.772c15.933 13.926 26.634 34.519 29.332 56.494 2.836 23.281-3.482 45.978-17.29 62.275zM648.243 371.763l-0.758-0.988-0.727 0.461c-3.169 1.92-6.774 2.908-10.378 2.908-10.906 0-19.773-8.55-19.773-19.164 0-3.927 1.28-7.731 3.604-10.967l3.231-4.475 107.034-100.26c6.892-6.456 10.875-15.299 11.162-24.801 0.353-9.569-3.052-18.616-9.477-25.503-8.253-8.781-20.357-12.795-32.328-10.67l-0.348 0.118c-1.833 1.213-3.43 2.463-4.828 3.743l-3.461 3.261-0.092 0.174c-3.517 9.016-8.837 16.865-15.898 23.434l-97.034 84.152-3.405 1.777c-2.703 1.224-5.494 1.889-8.371 1.889-10.849 0-19.686-8.612-19.686-19.195 0-5.898 2.729-11.397 7.613-15.058l0.64-0.527-0.061-0.108 98.196-87.327 0.067-0.317c0.43-2.125 0.727-4.219 0.778-6.17 0.292-9.539-3.087-18.611-9.533-25.498-8.259-8.806-20.357-12.759-32.312-10.67l-0.343 0.108c-1.833 1.229-3.405 2.452-4.803 3.784l-40.827 38.154-1.628 1.741c-18.406 20.296-29.962 32.655-34.34 36.869l-0.589 0.527c-3.84 4.178-9.062 6.492-14.715 6.492-10.865 0-19.743-8.617-19.743-19.174 0-7.613 4.649-14.444 11.761-17.5l21.14-19.712 0.072-0.297c2.908-11.771-0.271-24.074-8.515-32.886-8.131-8.694-20.316-12.826-32.312-10.67h-0.189l-0.148 0.118c-1.848 1.208-3.384 2.432-5.002 3.886l-32.957 27.884 5.596 5.499c19.773 19.487 20.035 51.415 0.568 71.214l-17.48 17.705c-4.68 4.772-10.132 8.489-16.195 11.049l-0.906 0.41 0.394 0.84c8.581 18.877 4.582 41.436-9.882 56.151l-17.475 17.741c-4.946 5.059-10.849 8.893-17.505 11.51l-0.876 0.323 0.333 0.876c2.202 5.724 3.333 11.72 3.389 17.71 0.092 13.466-5.002 26.138-14.408 35.707l-17.475 17.741c-9.405 9.564-22.011 14.858-35.492 15.002-4.797 0-9.334-0.604-13.824-1.853l-0.835-0.236-0.302 0.814c-2.504 6.738-6.282 12.682-11.254 17.736l-17.444 17.741c-9.436 9.539-22.026 14.884-35.523 14.976-13.548 0-26.199-5.12-35.676-14.397l-28.641-28.262-0.532-0.061c-0.891-0.061-1.336-0.108-1.818-0.169-10.378-0.323-20.485 3.2-28.334 9.887l-37.704 64.118c-12.068 25.206-18.212 41.784-1.961 59.172l70.472 96.046c16.614 17.418 29.993 21.734 60.539-0.538 19.354-14.106 43.919-14.223 92.841-14.464l1.254-0.036c5.596-0.026 11.515-0.056 17.823-0.113 24.888 0.148 42.675 7.255 58.486 13.614 18.278 7.322 37.166 14.915 67.973 11.935l2.836-0.261-2.442-1.469c-38.211-22.927-66.34-49.577-79.263-75.034-14.469-28.529-8.643-50.903-1.167-64.686 26.081-48.154 80.154-25.994 119.644-9.825 31.473 12.882 56.238 21.985 65.418 12.677 38.098-38.728 183.137-184.786 197.033-191.739l34.253-31.816c6.948-6.508 10.941-15.288 11.223-24.832 0.343-9.503-3.057-18.555-9.539-25.498-6.451-6.897-15.288-10.844-24.883-11.167-2.386-0.092-4.884 0.061-7.45 0.497l-0.343 0.113c-1.746 1.167-3.374 2.442-4.777 3.722-62.807 59.438-101.596 96.599-115.374 110.612l-4.014 3.779zM127.759 349.926l92.815 91.392c3.041 2.959 7.081 4.649 11.402 4.649 4.567-0.056 8.581-1.741 11.674-4.884l17.449-17.679c4.803-4.884 6.021-12.324 3.011-18.55l-100.577-99.046c-2.212-0.983-4.521-1.51-6.702-1.51h-0.538c-4.265 0.113-8.243 1.802-11.228 4.823l-17.475 17.741c-6.308 6.4-6.226 16.748 0.169 23.066zM177.592 271.852l7.224 7.004c2.555 1.69 4.972 3.666 7.178 5.852l92.805 91.361c2.207 2.176 4.26 4.649 5.842 6.979l9.073 9.037c3.067 3 7.122 4.654 11.412 4.654 4.552-0.031 8.607-1.715 11.674-4.818l17.449-17.72c3.036-3.098 4.695-7.204 4.634-11.571-0.026-4.388-1.731-8.484-4.808-11.515l-122.086-120.202c-3.005-2.975-7.004-4.664-10.962-4.664h-0.829c-4.229 0.072-8.253 1.761-11.284 4.833l-17.459 17.736c-6.308 6.431-6.221 16.753 0.138 23.035zM261.842 225.096l84.454 83.159c3.026 2.995 7.117 4.654 11.546 4.654 4.378 0 8.458-1.746 11.5-4.828l17.48-17.766c6.308-6.395 6.216-16.778-0.179-23.060l-84.46-83.159c-6.221-6.113-16.968-6.001-23.071 0.169l-17.444 17.772c-6.308 6.395-6.226 16.768 0.174 23.060zM348.938 181.294l41.38 40.771c2.98 2.908 7.096 4.598 11.469 4.649 4.47-0.026 8.581-1.741 11.622-4.818l17.475-17.741c6.308-6.395 6.226-16.748-0.169-23.086l-41.421-40.776c-3.011-2.934-6.963-4.588-11.197-4.649h-0.394c-4.347 0-8.463 1.741-11.489 4.833l-17.444 17.725c-3.072 3.118-4.741 7.219-4.71 11.581 0.056 4.367 1.787 8.433 4.879 11.51zM755.482 405.842l-4.419 4.562c-77.809 80.113-128.64 132.337-151.060 155.105-10.266 10.455-22.881 15.514-38.641 15.514-22.113 0-46.208-9.861-69.468-19.384-52.577-21.514-63.841-19.886-70.41-7.731-4.49 8.253-3.973 17.26 1.628 28.308 21.181 41.708 98.381 83.753 137.605 89.078 42.486 5.816 141.967-23.188 176.681-34.836l10.47-3.533 59.116 47.222c8.402 7.107 19.22 10.568 30.444 9.672 11.162-0.922 21.315-6.139 28.549-14.643l86.129-101.596c6.804-8.008 9.8-19.732 8.284-32.179-1.603-12.733-7.47-24.279-16.532-31.985l-119.429-120.12c-7.383-5.929-16.717-9.221-26.317-9.221-7.357 0-14.597 1.92-20.91 5.555l-21.719 20.214z" />
<glyph unicode="&#xe91e;" glyph-name="service" d="M278.856 600.873c37.018 0 67.118 30.131 67.118 67.108 0 37.023-30.1 67.113-67.118 67.113-37.007 0-67.113-30.090-67.113-67.113-0.005-36.977 30.106-67.108 67.113-67.108zM278.856 700.713c18.033 0 32.727-14.669 32.727-32.732 0-18.022-14.694-32.686-32.727-32.686-18.022 0-32.717 14.664-32.717 32.686 0 18.063 14.694 32.732 32.717 32.732zM295.956 494.874c6.876 0.671 13.711 1.72 20.372 3.18l28.549-30.060 18.145-3.011 24.366 12.826 1.51-0.056 4.439 3.21 4.966 2.591 0.614 1.285 22.543 15.964 5.545 17.516-13.85 39.004c1.167 1.444 2.34 2.867 3.348 4.209l0.333 0.415c1.541 2.012 3.036 4.040 4.736 6.467 1.341 1.92 2.621 3.85 3.937 5.919l41.462-1.116 14.961 10.732 8.064 26.010 1.198 1.311 0.916 5.432 1.654 5.35-0.502 1.336 4.68 27.208-8.474 16.333-37.422 17.812c-0.138 1.597-0.358 3.236-0.584 5.135-0.061 0.527-0.113 1.029-0.184 1.428-0.23 1.853-0.543 3.681-0.845 5.473l-0.113 0.814c-0.113 0.614-0.2 1.229-0.328 1.812-0.2 1.080-0.425 2.181-0.64 3.267l-0.369 1.7c-0.061 0.374-0.159 0.783-0.241 1.172l30.131 28.58 3.005 18.145-12.851 24.397 0.056 1.454-3.154 4.408-2.637 5.033-1.311 0.614-15.954 22.528-17.531 5.545-39.204-13.937c-0.189 0.138-0.328 0.256-0.502 0.415l-1.055 0.84c-1.142 0.901-2.284 1.843-3.456 2.714-0.609 0.471-1.229 0.942-1.838 1.382l-1.541 1.142c-1.024 0.727-2.012 1.459-3.036 2.15l-3.825 2.54c-0.527 0.364-1.055 0.701-1.556 1.029l1.080 41.661-10.696 14.94-26.010 8.059-1.341 1.198-5.366 0.911-5.376 1.654-1.388-0.502-27.192 4.654-16.333-8.474-17.92-37.668c-1.372-0.138-2.739-0.282-4.142-0.451l-2.427-0.302c-1.439-0.2-2.867-0.44-4.296-0.671l-1.582-0.256c-0.696-0.102-1.398-0.215-2.068-0.328-0.973-0.169-1.91-0.384-2.842-0.589l-3.123-0.64-28.718 30.275-18.145 3.011-24.428-12.867-1.469 0.067-4.378-3.123-5.023-2.668-0.64-1.316-22.497-15.954-5.581-17.505 13.998-39.388c-1.004-1.254-2.028-2.54-3.123-3.963l-0.532-0.64c-1.469-1.9-2.842-3.825-4.152-5.678l-0.497-0.671c-1.316-1.9-2.596-3.825-3.794-5.724l-41.789 1.085-14.95-10.701-8.079-26.010-1.167-1.341-0.901-5.35-1.669-5.391 0.497-1.388-4.68-27.192 8.474-16.312 37.668-17.946c0.671-6.943 1.782-13.891 3.267-20.716l-30.177-28.6-2.98-18.135 12.826-24.438-0.026-1.428 3.011-4.234 2.739-5.222 1.388-0.655 15.923-22.456 17.531-5.56 39.235 13.937c5.381-4.408 11.044-8.535 16.891-12.268l-1.111-41.462 10.726-14.961 25.994-8.064 1.357-1.142 5.079-0.84 5.668-1.756 1.439 0.532 27.136-4.654 16.307 8.448 17.843 37.519zM210.698 544.307l-0.614 0.328c-9.615 5.366-18.632 11.94-26.819 19.517l-0.527 0.456-15.396 3.2-36.434-12.984-8.535 12.042-0.701 0.256-1.485 2.642-2.314 3.441 0.087 0.829-6.861 13.051 28.017 26.588 4.137 15.165-0.169 0.671c-3.011 10.598-4.767 21.642-5.166 32.814l-0.031 0.727-8.658 13.128-34.995 16.645 2.483 14.551-0.317 0.758 0.758 2.478 0.87 4.378 0.64 0.532 4.383 14.121 38.748-1.029 13.583 7.649 1.357 2.253c0.901 1.587 1.843 3.154 2.714 4.593l0.471 0.671c1.029 1.603 2.068 3.21 3.18 4.782l0.358 0.532c1.101 1.551 2.243 3.123 3.436 4.68l0.527 0.671c1.116 1.428 2.253 2.867 3.395 4.209l1.085 1.229c1.009 1.198 2.068 2.427 2.908 3.369l2.084 2.821-0.829 0.701 2.755 12.739-12.969 36.593 12.027 8.53 0.271 0.732 2.427 1.341 3.594 2.427 0.87-0.087 13.071 6.861 26.665-28.104 15.14-4.178 0.671 0.2c1.526 0.415 3.092 0.829 4.736 1.198l1.551 0.42c0.758 0.169 1.485 0.312 2.401 0.527l2.181 0.43c0.614 0.113 1.229 0.256 1.812 0.374l3.594 0.584c0.998 0.143 1.951 0.328 2.924 0.445l2.196 0.256c1.454 0.189 2.883 0.358 4.255 0.471l2.109 0.143c1.485 0.128 2.98 0.241 4.593 0.297l0.701 0.031 13.44 8.673 16.65 34.985 14.551-2.483 0.758 0.312 2.452-0.753 4.378-0.881 0.558-0.671 14.121-4.352-1.055-38.62 7.444-13.471 1.229-0.742c0.911-0.497 1.751-1.009 2.954-1.72l1.393-0.845c0.44-0.256 0.855-0.497 1.311-0.783 0.799-0.502 1.582-1.029 2.371-1.556l3.067-2.038c0.768-0.532 1.526-1.085 2.278-1.644l2.924-2.13c0.901-0.696 1.787-1.439 2.683-2.166l2.314-1.812c1.167-0.998 2.309-2.012 3.451-3.036l2.314-2.012 15.36-3.18 36.378 12.938 8.535-12.068 0.732-0.261 1.311-2.396 2.452-3.62-0.113-0.886 6.886-13.056-27.93-26.506-4.326-14.582 0.333-1.285c0.399-1.398 0.753-2.836 1.126-4.321l0.527-2.063c0.159-0.701 0.302-1.388 0.445-2.14l0.41-1.9c0.143-0.814 0.317-1.644 0.471-2.401l0.343-2.15c0.271-1.475 0.497-2.954 0.696-4.485l0.184-1.423c0.2-1.7 0.399-3.395 0.543-5.053l0.097-1.382c0.143-1.756 0.256-3.507 0.312-4.961l0.087-1.459 8.617-13.010 34.744-16.507-2.483-14.551 0.333-0.753-0.732-2.427-0.911-4.434-0.671-0.558-4.352-14.085-38.446 1.014-13.655-7.736-1.367-2.365c-0.901-1.556-1.843-3.098-2.77-4.623l-0.389-0.553c-1.055-1.654-2.125-3.297-3.154-4.726l-0.297-0.44c-1.172-1.644-2.365-3.267-3.825-5.146-1.254-1.628-2.54-3.241-3.738-4.695l-0.415-0.44c-1.285-1.51-2.596-3.041-3.994-4.567l-2.253-2.509 1.638-1.372-3.092-11.981 12.882-36.28-12.042-8.53-0.297-0.701-2.33-1.285-3.656-2.478-0.911 0.087-13.051-6.876-26.481 27.93-15.135 4.152-0.671-0.169c-10.516-2.98-21.468-4.705-32.538-5.12l-0.701-0.026-13.123-8.648-16.563-34.826-14.52 2.483-0.814-0.358-2.698 0.829-4.178 0.84-0.486 0.62-14.121 4.378 1.029 38.477-7.777 13.66zM746.516 657.51c-37.007 0-67.108-30.1-67.108-67.123 0-36.992 30.106-67.108 67.108-67.108 37.038 0 67.113 30.121 67.113 67.108 0 37.023-30.075 67.123-67.113 67.123zM746.516 557.701c-18.028 0-32.701 14.669-32.701 32.681 0 18.063 14.669 32.727 32.701 32.727 18.038 0 32.758-14.664 32.758-32.727 0-18.012-14.72-32.681-32.758-32.681zM965.601 573.010l-8.448 16.333-37.432 17.792c-0.143 1.613-0.348 3.272-0.573 5.135-0.056 0.527-0.113 1.029-0.169 1.413-0.256 1.869-0.543 3.712-0.86 5.519l-0.399 2.596c-0.23 1.080-0.451 2.181-0.681 3.267l-0.625 2.867 30.131 28.58 3.021 18.145-12.836 24.397 0.026 1.454-3.103 4.424-2.637 5.023-1.367 0.614-15.918 22.528-17.521 5.545-39.26-13.937c-0.118 0.143-0.317 0.251-0.486 0.41l-1.060 0.814c-1.142 0.942-2.284 1.869-3.42 2.739-0.604 0.44-1.198 0.886-1.859 1.382l-1.567 1.142c-0.998 0.727-2.002 1.454-3.031 2.156l-3.507 2.34c-0.655 0.415-1.254 0.809-1.848 1.229l1.075 41.656-10.696 14.935-25.994 8.064-1.372 1.198-5.366 0.916-5.366 1.654-1.367-0.486-27.223 4.639-16.323-8.474-17.92-37.647c-1.372-0.159-2.739-0.302-4.163-0.471l-0.686-0.102c-0.568-0.056-1.142-0.113-1.715-0.2-1.367-0.169-2.734-0.399-4.306-0.671l-3.651-0.584c-0.973-0.2-1.915-0.374-2.831-0.584l-3.133-0.64-28.703 30.275-18.15 3.011-24.428-12.856-1.48 0.061-4.398-3.123-5.018-2.668-0.599-1.311-22.508-15.949-5.565-17.505 14.008-39.388c-1.024-1.26-2.048-2.545-3.169-3.968l-0.532-0.64c-1.428-1.9-2.831-3.825-4.142-5.663l-0.486-0.686c-1.311-1.9-2.57-3.825-3.825-5.75l-41.774 1.111-14.92-10.701-8.074-26.004-1.198-1.341-0.916-5.335-1.654-5.407 0.522-1.388-4.654-27.192 8.474-16.307 37.663-17.935c0.686-6.963 1.741-13.911 3.251-20.731l-30.188-28.605-2.995-18.13 12.867-24.468-0.056-1.398 3.021-4.239 2.744-5.222 1.367-0.64 15.923-22.467 17.521-5.555 39.229 13.926c5.396-4.403 11.044-8.53 16.896-12.268l-1.085-41.472 10.701-14.95 26.020-8.049 1.316-1.142 5.135-0.855 5.652-1.772 1.423 0.517 27.141-4.623 16.292 8.448 17.859 37.519c6.856 0.64 13.701 1.725 20.372 3.18l28.534-30.060 18.145-2.995 24.371 12.81 1.51-0.056 4.485 3.164 4.931 2.627 0.604 1.316 22.538 15.949 5.535 17.531-13.834 39.009c1.193 1.428 2.33 2.852 3.359 4.193l0.317 0.415c1.546 1.981 3.031 4.040 4.736 6.461 1.341 1.925 2.627 3.855 3.963 5.934l41.467-1.111 14.95 10.716 8.074 26.010 1.172 1.311 0.947 5.412 1.618 5.376-0.481 1.341 4.644 27.192zM928.676 550.938l0.338-0.753-0.768-2.427-0.886-4.439-0.655-0.553-4.393-14.080-38.436 1.024-13.635-7.747-1.398-2.371c-0.886-1.551-1.802-3.092-2.77-4.623l-0.394-0.584c-1.029-1.628-2.115-3.267-3.425-5.11-1.172-1.669-2.34-3.297-3.83-5.166-1.244-1.638-2.56-3.251-3.758-4.71l-0.338-0.44c-1.341-1.51-2.657-3.041-4.055-4.552l-2.248-2.509 1.618-1.382-3.082-11.971 12.897-36.296-12.042-8.53-0.282-0.701-2.34-1.285-3.656-2.478-0.916 0.087-13.036-6.861-26.511 27.919-15.119 4.152-0.691-0.174c-10.496-2.98-21.453-4.705-32.527-5.151h-0.717l-13.102-8.643-16.604-34.816-14.49 2.452-0.829-0.343-2.678 0.824-4.193 0.829-0.486 0.63-14.131 4.378 1.029 38.492-7.762 13.64-0.63 0.353c-9.585 5.407-18.632 11.945-26.819 19.517l-0.512 0.471-15.411 3.154-36.439-12.954-8.53 12.042-0.686 0.271-1.485 2.621-2.335 3.451 0.108 0.814-6.881 13.056 28.027 26.593 4.188 15.14-0.225 0.696c-2.995 10.644-4.736 21.688-5.166 32.814l-0.031 0.732-8.643 13.123-35.011 16.65 2.483 14.551-0.317 0.758 0.748 2.452 0.881 4.408 0.686 0.532 4.367 14.121 38.723-1.029 13.609 7.665 1.311 2.243c0.922 1.587 1.853 3.149 2.744 4.593l0.456 0.671c1.024 1.597 2.084 3.21 3.139 4.762l0.43 0.517c1.111 1.582 2.227 3.164 3.42 4.68l0.543 0.696c1.111 1.444 2.227 2.872 3.364 4.209l1.080 1.229c1.060 1.198 2.053 2.427 2.913 3.369l2.084 2.821-0.773 0.742 2.744 12.698-13.015 36.593 12.042 8.535 0.287 0.696 2.401 1.372 3.62 2.427 0.886-0.087 13.071 6.861 26.65-28.104 15.124-4.183 0.681 0.2c1.541 0.415 3.087 0.829 4.71 1.198l1.572 0.415c0.717 0.169 1.423 0.328 2.401 0.527l2.227 0.44c0.625 0.143 1.193 0.261 1.772 0.374l3.195 0.527c1.137 0.174 2.227 0.358 3.308 0.502l2.514 0.297c1.367 0.174 2.678 0.312 3.937 0.425l2.115 0.143c1.48 0.128 2.964 0.241 4.588 0.297l0.717 0.031 13.409 8.643 16.666 35.011 14.551-2.478 0.768 0.317 2.452-0.758 4.419-0.881 0.517-0.671 14.1-4.352-1.029-38.62 7.414-13.466 1.26-0.748c0.855-0.456 1.654-0.957 2.478-1.454l3.169-1.9c0.794-0.502 1.597-1.029 2.396-1.551l3.057-2.012c0.768-0.558 1.51-1.111 2.253-1.669l2.934-2.125c0.829-0.62 1.623-1.26 2.714-2.171l2.278-1.843c1.172-0.957 2.304-1.981 3.482-3.011l2.284-2.012 15.35-3.18 36.408 12.938 8.561-12.068 0.686-0.261 1.347-2.427 2.422-3.594-0.087-0.881 6.876-13.051-27.93-26.511-4.342-14.607 0.374-1.26c0.312-1.224 0.625-2.427 0.906-3.656l0.717-2.708c0.143-0.732 0.292-1.423 0.435-2.171l0.394-1.9c0.169-0.814 0.364-1.613 0.512-2.396l0.348-2.125c0.22-1.495 0.512-2.985 0.712-4.48l0.138-1.454c0.2-1.7 0.394-3.395 0.573-5.079l0.108-1.341c0.118-1.772 0.23-3.512 0.292-4.951l0.087-1.485 8.643-12.995 34.698-16.522-2.452-14.541zM515.768 293.98c-15.811 8.561-33.956 10.501-51.077 5.427-35.497-10.506-55.793-47.908-45.312-83.436 8.617-29.158 35.415-48.051 64.399-48.051 6.282 0 12.667 0.911 19.016 2.796 17.152 5.079 31.319 16.548 39.88 32.302 8.591 15.78 10.501 33.93 5.422 51.077-5.079 17.172-16.579 31.324-32.328 39.885zM512.471 219.448c-4.178-7.706-11.069-13.297-19.43-15.749-8.392-2.514-17.203-1.541-24.899 2.627-7.716 4.163-13.297 11.069-15.78 19.4-5.11 17.321 4.797 35.584 22.083 40.689 3.072 0.916 6.195 1.341 9.272 1.341 14.111 0 27.167-9.216 31.37-23.419 2.493-8.366 1.562-17.239-2.616-24.888zM702.858 252.012l-0.881 1.142-3.231 27.418-12.78 13.24-40.919 6.446c-0.594 1.485-1.254 3.031-2.022 4.797l-0.543 1.254c-0.768 1.741-1.597 3.425-2.401 5.079l-0.338 0.686c-0.261 0.517-0.517 1.142-0.794 1.654-0.517 1.029-1.029 1.997-1.577 2.97l-0.824 1.541c-0.169 0.338-0.369 0.686-0.573 1.024l20.777 35.948-2.278 18.263-19.005 19.461-0.599 1.715-4.25 3.333-3.942 4.050-1.48 0.205-21.688 17.070-18.376 0.343-33.608-24.494c-0.23 0.108-0.399 0.169-0.63 0.225l-1.249 0.543c-1.347 0.543-2.683 1.111-4.055 1.623-0.748 0.287-1.485 0.543-2.171 0.773l-1.823 0.65c-1.147 0.43-2.34 0.86-3.533 1.26-0.691 0.23-1.428 0.43-2.345 0.742l-1.649 0.456c-0.717 0.261-1.454 0.461-2.171 0.691l-10.772 40.243-14.479 11.269-27.233 0.384-1.638 0.732-5.381-0.64-5.668 0.056-1.167-0.84-27.382-3.282-13.266-12.739-6.477-41.231c-1.285-0.517-2.555-1.029-3.866-1.623l-2.212-0.947c-1.198-0.568-2.396-1.142-3.953-1.884l-1.428-0.681c-0.64-0.287-1.28-0.63-1.9-0.916-0.881-0.461-1.725-0.911-2.58-1.372l-2.796-1.51-36.137 20.884-18.232-2.253-19.533-19.005-1.654-0.625-3.333-4.285-4.055-3.937-0.215-1.454-17.096-21.652-0.338-18.381 24.596-33.782c-0.62-1.485-1.229-3.026-1.9-4.68l-0.287-0.799c-0.855-2.227-1.674-4.449-2.371-6.62l-0.302-0.768c-0.727-2.196-1.398-4.424-2.012-6.589l-40.387-10.783-11.269-14.525-0.389-27.192-0.753-1.654 0.671-5.366-0.061-5.678 0.845-1.172 3.282-27.392 12.739-13.24 41.19-6.508c2.637-6.482 5.673-12.841 9.027-18.918l-20.828-36.040 2.284-18.258 19.016-19.487 0.609-1.628 4.096-3.195 4.122-4.28 1.51-0.169 21.632-17.065 18.371-0.333 33.684 24.535c6.436-2.744 13.030-5.079 19.666-7.025l10.726-40.059 14.52-11.295 27.238-0.343 1.603-0.742 5.12 0.655 5.919-0.087 1.229 0.916 27.351 3.251 13.251 12.754 6.451 41.006c6.39 2.565 12.641 5.586 18.632 8.873l35.866-20.751 18.263 2.278 19.517 19.011 1.684 0.594 3.395 4.316 3.994 3.881 0.2 1.449 17.091 21.658 0.338 18.376-24.366 33.495c0.748 1.715 1.423 3.4 2.028 5.023l0.2 0.456c0.916 2.34 1.772 4.741 2.739 7.537 0.717 2.227 1.398 4.449 2.109 6.789l40.033 10.726 11.325 14.5 0.343 27.218 0.748 1.623-0.66 5.453 0.082 5.632zM621.768 204.529l-0.66-2.632c-0.425-1.741-0.855-3.507-1.336-5.274l-0.23-0.63c-0.517-1.884-1.085-3.732-1.823-5.903-0.63-1.915-1.316-3.825-2.171-6.026-0.748-1.94-1.541-3.85-2.284-5.591l-0.256-0.512c-0.824-1.823-1.654-3.656-2.565-5.54l-1.403-3.026 1.94-0.855 0.43-12.38 22.687-31.104-9.16-11.612-0.056-0.773-1.915-1.874-2.796-3.43-0.855-0.169-10.614-10.276-33.27 19.231-15.693-0.282-0.594-0.374c-9.277-5.852-19.261-10.583-29.747-14.126l-0.671-0.256-10.148-12.017-5.99-38.083-14.633-1.741-0.671-0.573-2.821 0.031-4.234-0.369-0.671 0.425-14.766 0.2-9.928 37.207-11.341 10.9-0.696 0.143c-10.716 2.432-21.248 6.164-31.258 11.069l-0.64 0.317-15.636-1.341-31.283-22.733-11.571 9.098-0.768 0.051-2.156 2.089-3.18 2.647-0.159 0.835-10.317 10.552 19.313 33.444-0.287 15.693-0.384 0.625c-5.903 9.298-10.726 19.436-14.28 30.019l-0.241 0.686-12.012 10.102-38.267 6.052-1.751 14.612-0.558 0.655 0.056 2.596-0.41 4.48 0.471 0.717 0.2 14.725 37.437 10.010 10.839 11.244 0.64 2.509c0.425 1.797 0.87 3.533 1.341 5.228l0.205 0.701c0.527 1.853 1.080 3.681 1.669 5.504l0.23 0.599c0.614 1.853 1.26 3.656 1.971 5.448l0.312 0.804c0.671 1.71 1.341 3.389 2.053 5.018l0.671 1.48c0.671 1.428 1.311 2.913 1.869 4.055l1.172 3.308-0.973 0.461-0.968 12.948-22.84 31.452 9.114 11.587 0.061 0.742 1.92 1.966 2.785 3.369 0.87 0.138 10.547 10.332 33.551-19.4 15.708 0.287 0.584 0.399c1.357 0.855 2.724 1.654 4.209 2.509l1.388 0.824c0.568 0.317 1.193 0.66 2.125 1.172l2.227 1.147c0.456 0.287 0.927 0.543 1.398 0.794l2.842 1.377c1.039 0.486 2.068 0.963 3.092 1.423l2.212 0.968c1.285 0.538 2.555 1.085 3.784 1.603l1.951 0.742c1.398 0.517 2.796 1.024 4.352 1.541l0.645 0.256 10.424 12.129 6.021 38.277 14.669 1.71 0.64 0.558 2.54-0.056 4.506 0.44 0.701-0.502 14.751-0.2 9.999-37.325 10.957-10.778 1.393-0.374c0.932-0.2 1.874-0.425 3.297-0.824l3.041-0.799c0.916-0.23 1.787-0.517 2.749-0.794l1.9-0.573c0.532-0.169 1.055-0.338 1.572-0.517 0.829-0.256 1.638-0.568 2.693-0.911l3.384-1.198c1.080-0.43 2.14-0.855 3.22-1.311l2.714-1.142c1.393-0.573 2.796-1.26 4.163-1.884l2.796-1.285 15.636 1.316 31.217 22.738 11.617-9.16 0.768-0.061 1.94-1.91 3.364-2.765 0.143-0.891 10.307-10.557-19.292-33.331 0.056-15.237 0.655-1.111c0.768-1.224 1.516-2.452 2.309-3.855l1.091-1.823c0.338-0.63 0.681-1.254 1.050-1.94l0.891-1.71c0.42-0.748 0.794-1.454 1.193-2.171l0.916-1.94c0.655-1.341 1.311-2.683 1.94-4.055l0.568-1.367c0.686-1.572 1.372-3.139 1.966-4.685l0.492-1.311c0.63-1.597 1.249-3.282 1.71-4.618l0.486-1.428 11.986-9.984 37.975-5.99 1.777-14.669 0.512-0.625-0.031-2.509 0.43-4.541-0.517-0.712-0.169-14.725-37.151-9.928-10.906-11.331z" />
<glyph unicode="&#xe91f;" glyph-name="supprimer" d="M826.004 800.364h-139.914c0 0.492 0.077 0.963 0.077 1.444 0 67.717-54.451 122.798-121.354 122.798-66.913 0-121.354-55.081-121.354-122.798 0-0.481 0.072-0.952 0.082-1.444h-154.957c-90.793 0-121.354-71.429-121.354-104.018 0-1.198 0.097-2.396 0.282-3.594l97.992-622.531c1.075-30.925 26.568-55.752 57.748-55.752h433.408c31.032 0 56.428 24.571 57.738 55.276l120.98 622.188c0.282 1.454 0.415 2.929 0.415 4.408 0 30.623-31.585 104.023-109.788 104.023zM489.692 801.807c0 42.23 33.69 76.57 75.121 76.57 41.416 0 75.121-34.345 75.121-76.57 0-0.481-0.061-0.952-0.072-1.444h-150.103c-0.015 0.492-0.067 0.963-0.067 1.444zM313.431 754.135h537.426c21.98 0 36.987-46.024 38.564-56.315l-3.978-20.49h-668.703l-3.226 20.5c1.070 16.492 19.502 56.305 99.917 56.305zM768.64 76.662c-0.271-1.444-0.425-2.918-0.425-4.398 0-6.272-5.284-11.571-11.556-11.571h-433.408c-6.262 0-11.551 5.299-11.551 11.571 0 1.188-0.097 2.396-0.287 3.584l-87.393 555.244h652.421l-107.802-554.429zM363.448 526.433c-1.91 12.616-13.681 21.335-26.301 19.41-12.626-1.905-21.32-13.681-19.41-26.307l54.897-364.052c1.72-11.453 11.587-19.676 22.83-19.676 1.137 0 2.304 0.087 3.471 0.256 12.621 1.9 21.315 13.696 19.41 26.322l-54.897 364.047zM534.989 546.104c-12.759 0-23.112-10.358-23.112-23.117v-364.052c0-12.78 10.348-23.127 23.112-23.127 12.769 0 23.122 10.348 23.122 23.127v364.052c0 12.759-10.353 23.117-23.122 23.117zM733.757 545.894c-12.677 1.751-24.3-7.168-25.999-19.825l-49.126-364.058c-1.715-12.641 7.158-24.279 19.814-25.999 1.055-0.133 2.089-0.2 3.123-0.2 11.397 0 21.309 8.428 22.876 20.029l49.116 364.052c1.715 12.652-7.168 24.289-19.804 25.999z" />
<glyph unicode="&#xe920;" glyph-name="suscrive" d="M884.639 867.103c-18.396 17.567-42.435 26.849-68.198 26.25-25.539-0.63-49.29-11.105-66.836-29.527l-454.682-477.379c-29.215-30.7-64.097-182.154-74.061-227.825-1.797-8.115 0.486-16.543 6.093-22.723 4.869-5.299 11.704-8.259 18.821-8.259 1.080 0 2.166 0.092 3.246 0.2 81.782 10.455 223.299 32.492 251.832 62.444l454.682 477.379c17.546 18.427 26.88 42.629 26.225 68.198-0.594 25.574-11.069 49.316-29.501 66.862l-67.62 64.379zM918.579 702.858l-454.262-476.948c-14.321-11.791-101.14-30.013-185.395-42.399 18.278 76.739 41.569 154.988 52.936 167.747l454.712 477.379c8.115 8.54 19.19 13.414 31.124 13.696 0.369 0 0.763 0 1.142 0 11.469 0 22.349-4.301 30.612-12.186l67.594-64.384c8.566-8.146 13.409-19.195 13.696-31.124 0.282-11.96-4.014-23.235-12.16-31.78zM248.653 593.147c2.616 1.306 6.574 3.988 7.89 6.61l203.141 222.868c14.464 15.805 13.153 43.515-2.678 59.341-17.142 17.142-46.131 15.831-61.988-1.306l-175.38-192.573-98.924 116.091c-9.221 11.873-31.662 7.885-50.115-9.257-17.142-15.831-23.721-38.241-14.469-50.115l139.756-164.838c9.252-11.848 31.667-7.916 50.145 9.226 1.311 1.336 2.621 2.642 2.621 3.953z" />
<glyph unicode="&#xe921;" glyph-name="tutorial" d="M1003.366 52.659l-124.805 115.932c16.906 31.37 26.588 67.64 24.136 106.281-6.4 107.868-96.604 191.626-201.267 186.808-104.704-4.029-183.603-95.058-177.147-202.931 6.436-107.868 96.62-191.631 201.252-186.798 37.888 1.649 71.675 14.531 100.669 35.471l124.856-115.999c3.983-4.019 10.424-4.019 14.459 0.86l40.264 45.839c2.412 4.035 1.582 10.506-2.417 14.536zM583.844 261.99c-4.024 73.252 49.946 135.281 120.786 138.45 70.845 3.231 132.874-53.898 136.863-128.010 4.065-73.262-49.905-135.219-120.781-138.45-70.016-2.463-132.045 54.758-136.868 128.010zM550.026 128.292v4.818h-475.868v483.133h815.662v-216.591c16.911-1.592 33.024-4.828 49.147-8.858v450.109h-915.538v-756.070h530.627c-2.396 13.655-4.029 28.196-4.029 43.459zM74.158 790.17h815.662v-126.433h-815.662v126.433zM155.494 759.327c15.56 0 28.186-12.662 28.186-28.201 0-15.549-12.626-28.211-28.186-28.211-15.549 0-28.175 12.662-28.175 28.211 0 15.539 12.626 28.201 28.175 28.201zM231.46 759.327c15.56 0 28.186-12.662 28.186-28.201 0-15.549-12.631-28.211-28.186-28.211-15.549 0-28.175 12.662-28.175 28.211 0 15.539 12.626 28.201 28.175 28.201zM307.42 759.327c15.56 0 28.186-12.662 28.186-28.201 0-15.549-12.631-28.211-28.186-28.211-15.549 0-28.175 12.662-28.175 28.211 0.005 15.539 12.631 28.201 28.175 28.201z" />
</font>
</defs>
</svg>
